PDA Mania Název novinky: PDA Mania :: Kuky se vrací

Přidal masi dne 04-02-2011 21:00
#1

Kuky se vrací, film scénáristy a režiséra Jana Svěráka, je dobrodružný i poetický rodinný příběh, v němž ovšem hlavní role přebírají hrdinové ze světa dětské představivosti. Šestiletý Ondra trpí astmatem, a tak ze “zdravotních důvodů“ musí pryč i jeho oblíbená hračka - růžový medvídek Kuky. Když maminka vyhodí Kukyho do popelnice, začne pracovat Ondrova fantazie, v níž prožívá medvídkovy příběhy v neznámém přírodním světě. Je to ale opravdu jen sen malého kluka a nebo se Kuky skutečně vydal za největším dobrodružstvím svého plyšového života? Kuky se vrací představuje v kontextu současné domácí kinematografie skutečně jedinečný snímek, a to nejen pro své zaměření na rodinné publikum spojující dětského i dospělého diváka, ale i pro netradiční a moderní kombinaci hraného a animovaného příběhu, plného akční scén a vtipných dialogů.


Code
Odkazy na webu mohou vidět pouze registrovaní uživatelé





Format : AVI
Format/Info : Audio Video Interleave
File size : 367 MiB
Duration : 1h 32mn
Overall bit rate : 554 Kbps
Video
Format : xvid
Codec ID : xvid
Duration : 1h 32mn
Bit rate : 510 Kbps
Width : 320 pixels
Height : 184 pixels
Display aspect ratio : 16:9
Frame rate : 25.000 fps
Resolution : bit0
Bits/(Pixel*Frame) : 0.347
Stream size : 338 MiB (92%)
Audio #1
ID : 1
Format : MPEG Audio
Format version : Version 2
Format profile : Layer 3
Codec ID : 55
Codec ID/Hint : MP3
Duration : 1h 32mn
Bit rate mode : Constant
Bit rate : 40.0 Kbps
Channel(s) : 1 channel
Sampling rate : 22.05 KHz
Resolution : 16 bits
Stream size : 26.5 MiB (7%)
Alignment : Split accross interleaves
Interleave, duration : 1000 ms (25.00 video frames)
Writing library : LAME3.95

Upravil/a Rendi dne 05-02-2011 18:14

Získejte registraci domén s tld .online, .space, .store, .tech zdarma!
Stačí si k jedné z těchto domén vybrat hosting Plus nebo Mega a registraci domény od nás dostanete za 0 Kč!
Objednat