PDA Mania - Diskuzní fórum: Kuky se vrací
  
Číst diskuzi
PDA Mania Filmi download Komedie
Kuky se vrací
Registrovat Pravidla fór FAQ Seznam uživatelů Dnešní příspěvky Hledat

Tisk diskuze

04-02-2011 09:00 Kuky se vrací | Upravil/a Rendi 05-02-2011 06:14  
Avatar členastyle=

masi
Sosák
Nováček


Příspěvek: 4
Založený: 01.02.11
Bydliště: Č.Krumlov

Úroveň upozornění 0 +
Kuky se vrací, film scénáristy a režiséra Jana Svěráka, je dobrodružný i poetický rodinný příběh, v němž ovšem hlavní role přebírají hrdinové ze světa dětské představivosti. Šestiletý Ondra trpí astmatem, a tak ze “zdravotních důvodů“ musí pryč i jeho oblíbená hračka - růžový medvídek Kuky. Když maminka vyhodí Kukyho do popelnice, začne pracovat Ondrova fantazie, v níž prožívá medvídkovy příběhy v neznámém přírodním světě. Je to ale opravdu jen sen malého kluka a nebo se Kuky skutečně vydal za největším dobrodružstvím svého plyšového života? Kuky se vrací představuje v kontextu současné domácí kinematografie skutečně jedinečný snímek, a to nejen pro své zaměření na rodinné publikum spojující dětského i dospělého diváka, ale i pro netradiční a moderní kombinaci hraného a animovaného příběhu, plného akční scén a vtipných dialogů.


Zdroj stáhnutí  Code
Odkazy na webu mohou vidět pouze registrovaní uživatelé





Format : AVI
Format/Info : Audio Video Interleave
File size : 367 MiB
Duration : 1h 32mn
Overall bit rate : 554 Kbps
Video
Format : xvid
Codec ID : xvid
Duration : 1h 32mn
Bit rate : 510 Kbps
Width : 320 pixels
Height : 184 pixels
Display aspect ratio : 16:9
Frame rate : 25.000 fps
Resolution : bit0
Bits/(Pixel*Frame) : 0.347
Stream size : 338 MiB (92%)
Audio #1
ID : 1
Format : MPEG Audio
Format version : Version 2
Format profile : Layer 3
Codec ID : 55
Codec ID/Hint : MP3
Duration : 1h 32mn
Bit rate mode : Constant
Bit rate : 40.0 Kbps
Channel(s) : 1 channel
Sampling rate : 22.05 KHz
Resolution : 16 bits
Stream size : 26.5 MiB (7%)
Alignment : Split accross interleaves
Interleave, duration : 1000 ms (25.00 video frames)
Writing library : LAME3.95
 
Nepřítomen
ne
Share This Post:
Přejít na fórum:
Forum powered by fusionBoard
Sdílet tuto diskuzi

Share This Thread
AddThis:
URL:
BBcode:
HTML:
Facebook Like:
Google+ One 


Přihlášení


Vstup na web pda-mania
Registrovaní uživatelé mají víc možností.

Registrovat


Přihlašovací Zona
Přihlásit

Zmenit Vzhled:
Statistiky

Svátek má: Ivona



Shoutbox
Pro přidání zprávy do shoutboxu, musíte být přihlášeni.

   Rendi 37.48.20.108
22/12/2017 12:17
12033 shlédnutí na tvém příspěvku Grin LOL

   Rendi 37.48.20.108
22/12/2017 12:07
Superman ne, jen su, ahoj . Já vím že víš . o čem mluvím

   Rendi 37.48.34.63
19/12/2016 19:23
Zdar jde to ale *** se co se dá. A neboj web pravidelně obnovuji už ho endora chtěla smazat ale v pohodě dopadlo to dobře web je zase ok aktuálně aktivovaný.

  Marty 141.0.15.172
07/12/2016 23:48
ZDAR,jak.se.mas.Re
ndi?Doufam.ze.ses.
nevyprdl.na.ui.toh
oto.webu.

  Marty 141.0.14.205
12/11/2016 13:03
Rendi.nevaz.se.odv
az.se!

Statistiky

Mod Blahopřaní
Tento panel slouží na blahopřání k narozeninám

Narozeniny v březnu Nikdo nemá narozeniny v březnu 

Vygenerované za: 0.59 sekund


pageup.gif


pageup.gif
„Čas si vymysleli lidé, aby věděli, od kdy do kdy a co za to.“ Jan Werich

Powered by PHP-Fusion copyright © 2002 - 2019 by Nick Jones.
Released as free software without warranties under GNU Affero GPL v3.
Vzhled upravil Rendi
Dále použit Gradient barevných odkazů a cursor .css