PDA Mania - Diskuzní fórum: Kuky se vrací
  
Číst diskuzi
PDA Mania Filmi download Komedie
Kuky se vrací
Registrovat Pravidla fór FAQ Seznam uživatelů Dnešní příspěvky Hledat

Tisk diskuze

04-02-2011 09:00 Kuky se vrací | Upravil/a Rendi 05-02-2011 06:14  
Avatar členastyle=

masi
Sosák
Nováček


Příspěvek: 4
Založený: 01.02.11
Bydliště: Č.Krumlov

Úroveň upozornění 0 +
Kuky se vrací, film scénáristy a režiséra Jana Svěráka, je dobrodružný i poetický rodinný příběh, v němž ovšem hlavní role přebírají hrdinové ze světa dětské představivosti. Šestiletý Ondra trpí astmatem, a tak ze “zdravotních důvodů“ musí pryč i jeho oblíbená hračka - růžový medvídek Kuky. Když maminka vyhodí Kukyho do popelnice, začne pracovat Ondrova fantazie, v níž prožívá medvídkovy příběhy v neznámém přírodním světě. Je to ale opravdu jen sen malého kluka a nebo se Kuky skutečně vydal za největším dobrodružstvím svého plyšového života? Kuky se vrací představuje v kontextu současné domácí kinematografie skutečně jedinečný snímek, a to nejen pro své zaměření na rodinné publikum spojující dětského i dospělého diváka, ale i pro netradiční a moderní kombinaci hraného a animovaného příběhu, plného akční scén a vtipných dialogů.


Zdroj stáhnutí  Code
Odkazy na webu mohou vidět pouze registrovaní uživatelé





Format : AVI
Format/Info : Audio Video Interleave
File size : 367 MiB
Duration : 1h 32mn
Overall bit rate : 554 Kbps
Video
Format : xvid
Codec ID : xvid
Duration : 1h 32mn
Bit rate : 510 Kbps
Width : 320 pixels
Height : 184 pixels
Display aspect ratio : 16:9
Frame rate : 25.000 fps
Resolution : bit0
Bits/(Pixel*Frame) : 0.347
Stream size : 338 MiB (92%)
Audio #1
ID : 1
Format : MPEG Audio
Format version : Version 2
Format profile : Layer 3
Codec ID : 55
Codec ID/Hint : MP3
Duration : 1h 32mn
Bit rate mode : Constant
Bit rate : 40.0 Kbps
Channel(s) : 1 channel
Sampling rate : 22.05 KHz
Resolution : 16 bits
Stream size : 26.5 MiB (7%)
Alignment : Split accross interleaves
Interleave, duration : 1000 ms (25.00 video frames)
Writing library : LAME3.95
 
Nepřítomen
ne
Share This Post:
Přejít na fórum:
Forum powered by fusionBoard
Sdílet tuto diskuzi

Share This Thread
AddThis:
URL:
BBcode:
HTML:
Facebook Like:
Google+ One 


Přihlášení


Vstup na web pda-mania
Registrovaní uživatelé mají víc možností.

Registrovat


Přihlašovací Zona
Přihlásit

Zmenit Vzhled:
Statistiky

Svátek má: Sabina



Shoutbox
Pro přidání zprávy do shoutboxu, musíte být přihlášeni.

   Rendi 78.80.27.59
11/01/2020 12:22
BuBuBu

   Rendi 46.33.112.71
09/01/2020 23:13
Myslíš že se přes to přihlašuji to by nějak nešlo sorry zapoměl jsem ti to předtím říct ale tak to bylo i přes superman jestli pamatuješ.

   Rendi 46.33.112.71
09/01/2020 23:08
Totiž ty jsi Admin nemůžeš se přihlásit přes obyčejný přihlašovací panel. Tam je ověření při přihlašování stejně kvůli spam bootum ne že bych to tam dál schválně.

   Rendi 46.33.112.71
09/01/2020 22:40
2012.tode.cz je fuč ale nevadí jeden web máme a to stačí.A dva bych nestačil.

   Rendi 46.33.112.71
09/01/2020 22:19
Musíš použít ještě to co jsem ti poslal

Statistiky

Mod Blahopřaní
Tento panel slouží na blahopřání k narozeninám

Narozeniny v říjnu 07.10 Rendi (33) Let


Vygenerované za: 0.25 sekund


pageup.gif


pageup.gif
Získejte registraci domén s tld .online, .space, .store, .tech zdarma!
Stačí si k jedné z těchto domén vybrat hosting Plus nebo Mega a registraci domény od nás dostanete za 0 Kč!
Objednat

Powered by PHP-Fusion copyright © 2002 - 2020 by Nick Jones.
Released as free software without warranties under GNU Affero GPL v3.
Vzhled upravil Rendi
Dále použit Gradient barevných odkazů a cursor .css